Donar $20 Donar $50 Donar $100 Donar mensualmente
 


Enviar respuesta 
 
Calificación:
  • 0 votos - 0 Media
  • 1
  • 2
  • 3
  • 4
  • 5
Buscar en el tema
A State Of Trance #545
Autor Mensaje
cmdbaires Sin conexión
Empleado del buffet
No es más sabio aquel que sab...
*

Ing. en Sistemas
Facultad Regional Buenos Aires

Mensajes: 19
Agradecimientos dados: 5
Agradecimientos: 5 en 1 posts
Registro en: Jan 2012
Facebook Twitter
Mensaje: #1
Music A State Of Trance #545
Hola a todos, les comparto el ASOT (A State of Trance) del dia 26/01/2012.
Que es ASOT?
ASOT es un programa de radio de música Electronica, *Trance - trance progressive* a manos de Armin Van Buuren, el mejor Dj a mi gusto y por la revista Dj Mag durante mas de 3 años.

Cita:Pueden Buscarlo en Youtube si desean ver como es la movida
[Imagen: Armin_rocks_in_Club_weloveatrance.jpg]

Cita:Tracklist:

01. Swanky Tunes, Matisse & Sadko – The Legend
02. Gareth Emery feat. Christina Novelli – Concrete Angel [Future Favorite]
03. Dash Berlin feat. Jonathan Mendelsohn – World Falls Apart
04. Paper Aeroplanes feat. Sarah Howells – Winter Never Comes (Mark Eteson Remix)
05. Moonbeam feat. Leusin – Daydream (Eximinds Remix)
06. Ana Criado & Ronski Speed – Afterglow (Will Holland Remix)
07. Mat Zo – It’s Yours
08. Neev Kennedy – The Unknown (DNS Project Remix)
09. Rank1 & Jochen Miller feat. Sarah Bettens – Wild & Perfect Day
10. Hannah – Falling Away (Protoculture Remix)
11. Omnia & Melissa Loretta – Halo [Tune Of The Week]
12. Origin – Sunstroke (LTN Remix)
13. David Forbes & Full Tilt – Incline (Stuart Trainer Remix)
14. Tritonal feat. Fisher – Slave (Tritonal And Ben Gold Club Dub)
15. Rene Dale – Reset (James Poulton Remix)
16. Ferrin & Morris – Lucid Springs (Uplifting Mix)
17. Meridian – Smile (Arctic Moon Remix)
18. Zaa Feat Stine Grove – Return To Life (X-trude Magic Flavour Remix)
19. Magnus – Velvet (John O’Callaghan Remix)
20. John O’Callaghan – Psychic Sensor (Indecent Noise Remix)
21. Running Man – Amnesia (SoundLift’s Emotional Take)
22. 2 Players – Signet (G&M-Project Remix) [ASOT Radio Classic]

Cita:Download:
Uploaded.to: http://ul.to/3mo9gxgr/Armin_van_Buuren_-...Trance.mp3
Turbobit.net: http://turbobit.net/d5gszz7rjwf7/Armin_v...5.mp3.html

Fuente: We Love a Trance
30-01-2012 19:37
Visita su sitio web Encuentra todos sus mensajes Cita este mensaje en tu respuesta
Maxter Sin conexión
Presidente del CEIT
Free
********

Ing. en Sistemas
Facultad Regional Buenos Aires

Mensajes: 1.105
Agradecimientos dados: 130
Agradecimientos: 74 en 27 posts
Registro en: Dec 2009
Mensaje: #2
RE: A State Of Trance #545
(30-01-2012 19:37)cmdbaires escribió:  Armin Van Buuren, el mejor Dj a mi gusto y por la revista Dj Mag durante mas de 3 años.


Definitivamente el mejor DJ para mi también. (Hasta fines del 2011 mi avatar era una pic de Armin!)
Lástima que a los usuarios de DJ Mag ahora piensen que el DJ Nro1 es Guetta...
Todo bien igualmente. No me cabe mucho lo que hace, pero no me gusta caer en eso de las guerras de defensores de DJs y/o estilos.
Escucho principalmente trance, pero estoy permanente abierto a otros estilos y los disfruto también.



Cita:Tracklist:
01. Swanky Tunes, Matisse & Sadko – The Legend
02. Gareth Emery feat. Christina Novelli – Concrete Angel [Future Favorite]
03. Dash Berlin feat. Jonathan Mendelsohn – World Falls Apart
04. Paper Aeroplanes feat. Sarah Howells – Winter Never Comes (Mark Eteson Remix)
05. Moonbeam feat. Leusin – Daydream (Eximinds Remix)
06. Ana Criado & Ronski Speed – Afterglow (Will Holland Remix)
07. Mat Zo – It’s Yours
08. Neev Kennedy – The Unknown (DNS Project Remix)
09. Rank1 & Jochen Miller feat. Sarah Bettens – Wild & Perfect Day
10. Hannah – Falling Away (Protoculture Remix)
11. Omnia & Melissa Loretta – Halo [Tune Of The Week]
12. Origin – Sunstroke (LTN Remix)
13. David Forbes & Full Tilt – Incline (Stuart Trainer Remix)
14. Tritonal feat. Fisher – Slave (Tritonal And Ben Gold Club Dub)
15. Rene Dale – Reset (James Poulton Remix)
16. Ferrin & Morris – Lucid Springs (Uplifting Mix)
17. Meridian – Smile (Arctic Moon Remix)
18. Zaa Feat Stine Grove – Return To Life (X-trude Magic Flavour Remix)
19. Magnus – Velvet (John O’Callaghan Remix)
20. John O’Callaghan – Psychic Sensor (Indecent Noise Remix)
21. Running Man – Amnesia (SoundLift’s Emotional Take)
22. 2 Players – Signet (G&M-Project Remix) [ASOT Radio Classic]

Download:
Uploaded.to: http://ul.to/3mo9gxgr/Armin_van_Buuren_-...Trance.mp3
Turbobit.net: http://turbobit.net/d5gszz7rjwf7/Armin_v...5.mp3.html[/quote]

Fuente: We Love a Trance

[/quote]

Gracias por el link.
Yo particularmente busco por torrent el ripeo de "Inspiron" que trae los tracks separados en lugar del ASOT completo en un solo file.
Es que soy fana también de los tracklists, y saber que track específico estoy escuchando

Bienvenido a la comunidad trancera Uteniana. Somos unos cuantos que estamos por ahí dispersos. =P

[Imagen: firma_valkiria3.jpg]
30-01-2012 23:39
Encuentra todos sus mensajes Cita este mensaje en tu respuesta
cmdbaires Sin conexión
Empleado del buffet
No es más sabio aquel que sab...
*

Ing. en Sistemas
Facultad Regional Buenos Aires

Mensajes: 19
Agradecimientos dados: 5
Agradecimientos: 5 en 1 posts
Registro en: Jan 2012
Facebook Twitter
Mensaje: #3
RE: A State Of Trance #545
Cita:TRACK 01 AUDIO

PERFORMER "A State Of Trance"

TITLE "Intro"

INDEX 01 00:00:00

TRACK 02 AUDIO

PERFORMER "Swanky Tunes, Matisse & Sadko"

TITLE "The Legend"

INDEX 01 01:01:53

TRACK 03 AUDIO

PERFORMER "Gareth Emery feat. Christina Novelli"

TITLE "Concrete Angel (Club Mix) [Future Favorite]"

INDEX 01 08:13:36

TRACK 04 AUDIO

PERFORMER "Dash Berlin feat. Jonathan Mendelsohn"

TITLE "World Falls Apart (Club Mix)"

INDEX 01 14:12:42

TRACK 05 AUDIO

PERFORMER "Paper Aeroplanes"

TITLE "Winter Never Comes (Mark Eteson Club Remix)"

INDEX 01 20:16:14

TRACK 06 AUDIO

PERFORMER "Moonbeam feat. Leusin"

TITLE "Daydream (Eximinds Remix)"

INDEX 01 26:45:20

TRACK 07 AUDIO

PERFORMER "Ana Criado & Ronski Speed"

TITLE "Afterglow (Will Holland Remix)"

INDEX 01 31:43:33

TRACK 08 AUDIO

PERFORMER "Mat Zo"

TITLE "It's Yours"

INDEX 01 37:31:47

TRACK 09 AUDIO

PERFORMER "Neev Kennedy"

TITLE "The Unknown (DNS Project Remix)"

INDEX 01 41:39:59

TRACK 10 AUDIO

PERFORMER "Rank 1 & Jochen Miller feat. Sarah Bettens"

TITLE "Wild & Perfect Day"

INDEX 01 47:21:45

TRACK 11 AUDIO

PERFORMER "Hannah"

TITLE "Falling Away (Protoculture Remix)"

INDEX 01 51:50:52

TRACK 12 AUDIO

PERFORMER "Omnia & Melissa Loretta"

TITLE "Halo [Tune Of The Week]"

INDEX 01 56:41:45

TRACK 13 AUDIO

PERFORMER "Origin"

TITLE "Sunstroke (LTN Remix)"

INDEX 01 62:37:38

TRACK 14 AUDIO

PERFORMER "David Forbes & Full Tilt"

TITLE "Incline (Stuart Trainer Remix)"

INDEX 01 67:11:59

TRACK 15 AUDIO

PERFORMER "Tritonal feat. Fisher"

TITLE "Slave (Tritonal & Ben Gold Club Dub)"

INDEX 01 71:35:07

TRACK 16 AUDIO

PERFORMER "Rene Dale"

TITLE "Reset (James Poulton Remix)"

INDEX 01 76:53:67

TRACK 17 AUDIO

PERFORMER "Ferrin & Morris"

TITLE "Lucid Springs (Uplifting Mix)"

INDEX 01 80:41:33

TRACK 18 AUDIO

PERFORMER "Meridian"

TITLE "Smile (Arctic Moon Remix)"

INDEX 01 86:06:11

TRACK 19 AUDIO

PERFORMER "Zaa feat. Stine Grove"

TITLE "Return To Life (X-Trude's Magic Flavor Remix)"

INDEX 01 91:30:63

TRACK 20 AUDIO

PERFORMER "Magnus"

TITLE "Velvet (John O'Callaghan Remix)"

INDEX 01 97:09:49

TRACK 21 AUDIO

PERFORMER "John O'Callaghan"

TITLE "Psychic Sensor (Mark Young & Damo Kay Remix)"

INDEX 01 101:23:58

TRACK 22 AUDIO

PERFORMER "Running Man"

TITLE "Amnesia (SoundLift Emotional Remix)"

INDEX 01 107:42:11

TRACK 23 AUDIO

PERFORMER "2 Players"

TITLE "Signet (G&M Project Remix) [ASOT Radio Classic]"

INDEX 01 114:24:15

TRACK 24 AUDIO

PERFORMER "A State Of Trance"

TITLE "Outro"

INDEX 01 120:14:03





[00:00] 01. A State Of Trance - Intro (01:02)

[01:01] 02. Swanky Tunes, Matisse & Sadko - The Legend (07:12)

[08:13] 03. Gareth Emery feat. Christina Novelli - Concrete Angel (Club Mix) [Future Favorite] (05:59)

[14:12] 04. Dash Berlin feat. Jonathan Mendelsohn - World Falls Apart (Club Mix) (06:04)

[20:16] 05. Paper Aeroplanes - Winter Never Comes (Mark Eteson Club Remix) (06:29)

[26:45] 06. Moonbeam feat. Leusin - Daydream (Eximinds Remix) (04:58)

[31:43] 07. Ana Criado & Ronski Speed - Afterglow (Will Holland Remix) (05:48)

[37:31] 08. Mat Zo - It's Yours (04:08)

[41:39] 09. Neev Kennedy - The Unknown (DNS Project Remix) (05:42)

[47:21] 10. Rank 1 & Jochen Miller feat. Sarah Bettens - Wild & Perfect Day (04:29)

[51:50] 11. Hannah - Falling Away (Protoculture Remix) (04:51)

[56:41] 12. Omnia & Melissa Loretta - Halo [Tune Of The Week] (05:56)

[62:37] 13. Origin - Sunstroke (LTN Remix) (04:34)

[67:11] 14. David Forbes & Full Tilt - Incline (Stuart Trainer Remix) (04:23)

[71:35] 15. Tritonal feat. Fisher - Slave (Tritonal & Ben Gold Club Dub) (05:19)

[76:53] 16. Rene Dale - Reset (James Poulton Remix) (03:48)

[80:41] 17. Ferrin & Morris - Lucid Springs (Uplifting Mix) (05:25)

[86:06] 18. Meridian - Smile (Arctic Moon Remix) (05:25)

[91:30] 19. Zaa feat. Stine Grove - Return To Life (X-Trude's Magic Flavor Remix) (05:39)

[97:09] 20. Magnus - Velvet (John O'Callaghan Remix) (04:14)

[101:23] 21. John O'Callaghan - Psychic Sensor (Mark Young & Damo Kay Remix) (06:18)

[107:42] 22. Running Man - Amnesia (SoundLift Emotional Remix) (06:42)

[114:24] 23. 2 Players - Signet (G&M Project Remix) [ASOT Radio Classic] (05:50)

[120:14] 24. A State Of Trance - Outro (00:38)
(Este mensaje fue modificado por última vez en: 31-01-2012 00:09 por cmdbaires.)
31-01-2012 00:08
Visita su sitio web Encuentra todos sus mensajes Cita este mensaje en tu respuesta
Buscar en el tema
Enviar respuesta 




Usuario(s) navegando en este tema: 1 invitado(s)



    This forum uses Lukasz Tkacz MyBB addons.